BBC Design Rules

BBC Design Rules
6xDVDRip | English | AVI | 736 x 400 | XviD ~1495 Kbps | 25 fps
MP3 | 170 Kbps | 48.0 KHz | 2 channels | 02:50:54 | 1.99 GB
Genre: eLearning Video / Homebuilding, Design
Laurence Llewelyn-Bowen gets right down to the fundamentals of design in this fascinating back-to-basics series. He tackles real problems in real homes as he explores six themes: space, colour, light, texture and pattern, balance and order, and personality. In addition to his own in-depth knowledge of design principles, Laurence calls on a colour forecaster, psychologists and a perception specialist to explain and demonstrate the science behind the how and the why.

Space comes under the spotlight in the first programme. Lack of space is a common problem in British homes which, surprisingly, have 20 square metres less space than Japanese homes, with an average of only 120 square metres.

"The cardinal sin that the British indulge in beyond any other nation is the concept of agoraphobic furniture that feels it needs to keep its back against the wall at all times in case something unpleasant happens to it!" quips Laurence.

By painting the walls a paler colour, bringing the outside inside by strategically placing an eye-catching object outside the window and switching to light-reflecting flooring, the brain is deluded into thinking that the room is bigger. Suddenly, the crowded living room is calmer and seems larger thanks to a little bit of science and the tricks of design rules.

Eye brain specialist Dr Ione Fine comments: "Half of interior design is illusion."And on a practical note, Laurence shows why it’s better to buy a couple of two-seater sofas because three people never sit on a three-seater

6 episode series:
1-Space and Planning
2-Colour
3-Light
4-Textures and pattern
5-Balance and order
6-Personality

General
Complete name : Dsegin.Ruls 3 Light.avi
Format : AVI
Format/Info : Audio Video Interleave
File size : 342 MiB
Duration : 28mn 30s
Overall bit rate mode : Variable
Overall bit rate : 1 678 Kbps
Writing application : VirtualDubMod 1.5.10.2 (build 2540/release)
Writing library : VirtualDubMod build 2540/release

Video
ID : 0
Format : MPEG-4 Visual
Format profile : Advanced [email protected]
Format settings, BVOP : 2
Format settings, QPel : Yes
Format settings, GMC : 3 warppoints
Format settings, Matrix : Default (H.263)
Muxing mode : Packed bitstream
Codec ID : XVID
Codec ID/Hint : XviD
Duration : 28mn 30s
Bit rate : 1 495 Kbps
Width : 736 pixels
Height : 400 pixels
Display aspect ratio : 16:9
Frame rate : 25.000 fps
Color space : YUV
Chroma subsampling : 4:2:0
Bit depth : 8 bits
Scan type : Interlaced
Scan order : Bottom Field First
Compression mode : Lossy
Bits/(Pixel*Frame) : 0.203
Stream size : 305 MiB (89%)
Writing library : XviD 1.2.0SMP (UTC 2006-01-08)

Audio
ID : 1
Format : MPEG Audio
Format version : Version 1
Format profile : Layer 3
Mode : Joint stereo
Mode extension : MS Stereo
Codec ID : 55
Codec ID/Hint : MP3
Duration : 28mn 30s
Bit rate mode : Variable
Bit rate : 170 Kbps
Nominal bit rate : 160 Kbps
Channel(s) : 2 channels
Sampling rate : 48.0 KHz
Compression mode : Lossy
Stream size : 34.6 MiB (10%)
Alignment : Aligned on interleaves
Interleave, duration : 24 ms (0.60 video frame)
Interleave, preload duration : 482 ms
Writing library : LAME3.90.
Encoding settings : -m j -V 4 -q 2 -lowpass 18 -abr 160

Screenshots


https://rapidgator.net/file/b5434956d368ef225a3b1b4e2b18f152/9m6ym.BBC.Design.Rules.part01.rar.html
https://rapidgator.net/file/27eb6b889ff06a0fc2977712fb3a6996/9m6ym.BBC.Design.Rules.part02.rar.html
https://rapidgator.net/file/5375dfb021079138f5016557f4978cb1/9m6ym.BBC.Design.Rules.part03.rar.html
https://rapidgator.net/file/83679886c3f6d67d2e1b7855fa43a55a/9m6ym.BBC.Design.Rules.part04.rar.html
https://rapidgator.net/file/9a625513638e6b3b2e9c336f36434e81/9m6ym.BBC.Design.Rules.part05.rar.html
https://rapidgator.net/file/344d93607973f39bebabfb72391e31d6/9m6ym.BBC.Design.Rules.part06.rar.html
https://rapidgator.net/file/52d0b41145ddad15c5e71685d63258a0/9m6ym.BBC.Design.Rules.part07.rar.html
https://rapidgator.net/file/f49af7a54475dd95a2f507b05c6b715e/9m6ym.BBC.Design.Rules.part08.rar.html
https://rapidgator.net/file/a78859edce92db595328abc8244d9b43/9m6ym.BBC.Design.Rules.part09.rar.html

http://nitroflare.com/view/D852778633E0C6F/9m6ym.BBC.Design.Rules.part01.rar
http://nitroflare.com/view/2F903ABBA000DAB/9m6ym.BBC.Design.Rules.part02.rar
http://nitroflare.com/view/6555AFA404F8112/9m6ym.BBC.Design.Rules.part03.rar
http://nitroflare.com/view/8707286C21D8536/9m6ym.BBC.Design.Rules.part04.rar
http://nitroflare.com/view/47DC5586F4CFB93/9m6ym.BBC.Design.Rules.part05.rar
http://nitroflare.com/view/DBB00CDF25A1880/9m6ym.BBC.Design.Rules.part06.rar
http://nitroflare.com/view/09542697BB1C206/9m6ym.BBC.Design.Rules.part07.rar
http://nitroflare.com/view/8BA465C6C9C3CEE/9m6ym.BBC.Design.Rules.part08.rar
http://nitroflare.com/view/F1ACBD5427D2C67/9m6ym.BBC.Design.Rules.part09.rar

Links are Interchangeable – No Password – Single Extraction

Leave a Reply