Beyond Basic – Acoustic Blues Guitar – Keith Wyatt

Beyond Basic – Acoustic Blues Guitar – Keith Wyatt
DVDRip | English | AVI | 624 x 464 | XviD ~1412 kbps | 29.970 fps
MP3 192 Kbps 48.0 KHz | 2 channels | 01:05:26 | 659.1 MB
Genre: eLearning Video / Guitar lesson
Keith Wyatt gets you started right playing "down home" blues on your acoustic. Learn all the classic moves in the three popular keys, including open-string chords with melodic embellishments, turnarounds, and both slow and quick-change versions of the 12-bar blues progression. Youll also earn strum patterns, bass lines and the blues shuffle. Keith includes the use of a capo as well as a wealth of insight into this traditional and influential style.

Opening & Tuning (3:21)
Getting Started (5:33)
Open Position Chords (10:14)
Twelve Bar Blues Progression (6:32)
Building Rhythm Patterns (9:53)
Rhythm Patterns with Bass Lines (18:16)
Chord Patterns Key of A (7:16)
Using a Capo & Conclusion (4:18)

General
Complete name : 02_-_Getting_Started.avi
Format : AVI
Format/Info : Audio Video Interleave
File size : 64.2 MiB
Duration : 5mn 33s
Overall bit rate : 1 615 Kbps
Writing application : VirtualDubMod 1.5.10.2 (build 2540/release)
Writing library : VirtualDubMod build 2540/release

Video
ID : 0
Format : MPEG-4 Visual
Format profile : Advanced [email protected]
Format settings, BVOP : 1
Format settings, QPel : No
Format settings, GMC : No warppoints
Format settings, Matrix : Default (MPEG)
Codec ID : XVID
Codec ID/Hint : XviD
Duration : 5mn 33s
Bit rate : 1 412 Kbps
Width : 624 pixels
Height : 464 pixels
Display aspect ratio : 4:3
Frame rate : 29.970 (30000/1001) fps
Color space : YUV
Chroma subsampling : 4:2:0
Bit depth : 8 bits
Scan type : Progressive
Compression mode : Lossy
Bits/(Pixel*Frame) : 0.163
Stream size : 56.1 MiB (87%)
Writing library : XviD 64

Audio
ID : 1
Format : MPEG Audio
Format version : Version 1
Format profile : Layer 3
Mode : Joint stereo
Mode extension : MS Stereo
Codec ID : 55
Codec ID/Hint : MP3
Duration : 5mn 33s
Bit rate mode : Constant
Bit rate : 192 Kbps
Channel(s) : 2 channels
Sampling rate : 48.0 KHz
Compression mode : Lossy
Stream size : 7.63 MiB (12%)
Alignment : Aligned on interleaves
Interleave, duration : 33 ms (1.00 video frame)
Interleave, preload duration : 504 ms
Writing library : LAME3.99r
Encoding settings : -m j -V 4 -q 0 -lowpass 17 -b 192

Screenshots




https://rapidgator.net/file/d0dc8f7d80623d6d8b4ea22cc4799080/ntri6.01OpeningTuning.avi.html
https://rapidgator.net/file/7688575d9ac7e54d70867a12e998c5b4/ntri6.02GettingStarted.avi.html
https://rapidgator.net/file/ee4a8dfb2aa0bc6c041639fdabb1ed9c/ntri6.03OpenPositionChords.avi.html
https://rapidgator.net/file/65904ecf1779265a36032ecb5aaab276/ntri6.04TwelveBarBluesProgression.avi.html
https://rapidgator.net/file/6108a3e4519f094d6b8f6e78dc675e2b/ntri6.05BuildingRhythmPatterns.avi.html
https://rapidgator.net/file/9866723939bc55bf2be0c4fd8f4d1ab0/ntri6.06RhythmPatternswithBassLines.avi.html
https://rapidgator.net/file/2f419fdc4cffd0fa3caedfa3a44a23ca/ntri6.07ChordPatternsKeyofA.avi.html
https://rapidgator.net/file/85a4b3c14251ea35e7daa3d1ce097bdb/ntri6.08UsingaCapoConclusion.avi.html

https://nitroflare.com/view/6823D3682425BCA/ntri6.01OpeningTuning.avi
https://nitroflare.com/view/4358ADDED8A54E2/ntri6.02GettingStarted.avi
https://nitroflare.com/view/C178FA109ED45B3/ntri6.03OpenPositionChords.avi
https://nitroflare.com/view/A9E2DCCE444B3DB/ntri6.04TwelveBarBluesProgression.avi
https://nitroflare.com/view/F7B89E7CDB4DE9B/ntri6.05BuildingRhythmPatterns.avi
https://nitroflare.com/view/9A7F7920A9982EE/ntri6.06RhythmPatternswithBassLines.avi
https://nitroflare.com/view/3996549A6849CB0/ntri6.07ChordPatternsKeyofA.avi
https://nitroflare.com/view/3A2F8024C5561BC/ntri6.08UsingaCapoConclusion.avi

Links are Interchangeable – No Password – Single Extraction

- No Comments on this Post -

Leave a Reply