Daymond John – Teaches You His Billion Dollar Business Secret

Daymond John – Teaches You His Billion Dollar Business Secret
WEBRip | English | MP4 + PDF Guides | 640 x 360 | AVC ~900 kbps | 29.970 fps
AAC | 93.4 Kbps | 48.0 KHz | 2 channels | 04:44:04 | 2.12 GB
Genre: eLearning Video / Business, Sales, Marketing
Learn Directly from Daymond. Daymond John is an entrepreneur in every sense of the word. He is not only a pioneer in the fashion industry, but a Shark on ABC’s Shark Tank, New York Times best-selling author, branding guru and highly sought after business consultant. Now, Daymond John is sharing the tips, lessons and secrets that helped him turn a $40 budget into FUBU, a $6 billion fashion game-changer.

Within this 8+ hour curriculum, Daymond and his team will walk you through how to start, build and scale your business from the ground up. Take control of your success with Daymond on Demand, one of the most accessible and engaging educational platforms of its kind

General
Complete name : 16Your Company Logo.mp4
Format : MPEG-4
Format profile : Base Media / Version 2
Codec ID : mp42 (isom/iso2/avc1/mp41/mp42)
File size : 30.4 MiB
Duration : 4 min 6 s
Overall bit rate : 1 033 kb/s
Writing application : Lavf54.29.104

Video
ID : 1
Format : AVC
Format/Info : Advanced Video Codec
Format profile : [email protected]
Format settings : 3 Ref Frames
Format settings, CABAC : No
Format settings, RefFrames : 3 frames
Format settings, GOP : M=1, N=15
Codec ID : avc1
Codec ID/Info : Advanced Video Coding
Duration : 4 min 6 s
Bit rate : 900 kb/s
Width : 640 pixels
Height : 360 pixels
Display aspect ratio : 16:9
Frame rate mode : Constant
Frame rate : 29.970 (29970/1000) FPS
Color space : YUV
Chroma subsampling : 4:2:0
Bit depth : 8 bits
Scan type : Progressive
Bits/(Pixel*Frame) : 0.130
Stream size : 27.6 MiB (91%)
Writing library : x264 core 136
Encoding settings : cabac=0 / ref=3 / deblock=1:0:0 / analyse=0x1:0x111 / me=hex / subme=7 / psy=1 / psy_rd=1.00:0.00 / mixed_ref=1 / me_range=16 / chroma_me=1 / trellis=1 / 8x8dct=0 / cqm=0 / deadzone=21,11 / fast_pskip=1 / chroma_qp_offset=-2 / threads=48 / lookahead_threads=2 / sliced_threads=0 / nr=0 / decimate=1 / interlaced=0 / bluray_compat=0 / constrained_intra=0 / bframes=0 / weightp=0 / keyint=15 / keyint_min=8 / scenecut=40 / intra_refresh=0 / rc_lookahead=15 / rc=abr / mbtree=1 / bitrate=900 / ratetol=1.0 / qcomp=0.60 / qpmin=10 / qpmax=51 / qpstep=4 / ip_ratio=1.41 / aq=1:1.00
Tagged date : UTC 2017-04-06 17:26:07

Audio
ID : 2
Format : AAC
Format/Info : Advanced Audio Codec
Format profile : LC
Codec ID : mp4a-40-2
Duration : 4 min 6 s
Bit rate mode : Constant
Bit rate : 93.4 kb/s
Channel(s) : 2 channels
Channel positions : Front: L R
Sampling rate : 48.0 kHz
Frame rate : 46.875 FPS (1024 SPF)
Compression mode : Lossy
Stream size : 2.75 MiB (9%)
Default : Yes
Alternate group : 1
Tagged date : UTC 2017-04-06 17:26:07


https://rapidgator.net/file/902965097abcb665137e049168e1ee90/t0tn0.Daymond.John..Teaches.You.His.Billion.Dollar.Business.Secret.part01.rar.html
https://rapidgator.net/file/9e70a901b6de13aa8bd7b2cb7c2f8e3f/t0tn0.Daymond.John..Teaches.You.His.Billion.Dollar.Business.Secret.part02.rar.html
https://rapidgator.net/file/3f736006d5d6df22e4c4e7ccf928f45a/t0tn0.Daymond.John..Teaches.You.His.Billion.Dollar.Business.Secret.part03.rar.html
https://rapidgator.net/file/8698a68c2bf031328fd8ee6595b19189/t0tn0.Daymond.John..Teaches.You.His.Billion.Dollar.Business.Secret.part04.rar.html
https://rapidgator.net/file/b13c065ac98922f146253a2138afd948/t0tn0.Daymond.John..Teaches.You.His.Billion.Dollar.Business.Secret.part05.rar.html
https://rapidgator.net/file/18d6414d5577af1762a2df800df7896e/t0tn0.Daymond.John..Teaches.You.His.Billion.Dollar.Business.Secret.part06.rar.html
https://rapidgator.net/file/fc70c298c5880144f93c977805c3a499/t0tn0.Daymond.John..Teaches.You.His.Billion.Dollar.Business.Secret.part07.rar.html
https://rapidgator.net/file/6264c411d11fd8e7a37922b18691028d/t0tn0.Daymond.John..Teaches.You.His.Billion.Dollar.Business.Secret.part08.rar.html
https://rapidgator.net/file/e8b06e1566abc373cd03daaffc000ffa/t0tn0.Daymond.John..Teaches.You.His.Billion.Dollar.Business.Secret.part09.rar.html

https://nitroflare.com/view/30125C8C2F21212/t0tn0.Daymond.John..Teaches.You.His.Billion.Dollar.Business.Secret.part01.rar
https://nitroflare.com/view/2F62B3E0D40659D/t0tn0.Daymond.John..Teaches.You.His.Billion.Dollar.Business.Secret.part02.rar
https://nitroflare.com/view/75FA918A77DCF2C/t0tn0.Daymond.John..Teaches.You.His.Billion.Dollar.Business.Secret.part03.rar
https://nitroflare.com/view/0198BB6A3863AFE/t0tn0.Daymond.John..Teaches.You.His.Billion.Dollar.Business.Secret.part04.rar
https://nitroflare.com/view/DC6A45C0578F42B/t0tn0.Daymond.John..Teaches.You.His.Billion.Dollar.Business.Secret.part05.rar
https://nitroflare.com/view/E422345E8F0445A/t0tn0.Daymond.John..Teaches.You.His.Billion.Dollar.Business.Secret.part06.rar
https://nitroflare.com/view/9E6D1C295343F89/t0tn0.Daymond.John..Teaches.You.His.Billion.Dollar.Business.Secret.part07.rar
https://nitroflare.com/view/8EBFEB644D56907/t0tn0.Daymond.John..Teaches.You.His.Billion.Dollar.Business.Secret.part08.rar
https://nitroflare.com/view/FA87A6C701B2EF3/t0tn0.Daymond.John..Teaches.You.His.Billion.Dollar.Business.Secret.part09.rar

Links are Interchangeable – No Password – Single Extraction

- No Comments on this Post -

Leave a Reply