Frontendmasters – Advanced GraphQL, v2 (2020)

Frontendmasters – Advanced GraphQL, v2 (2020)
WEBRip | English | MP4 | 1920 x 1080 | AVC ~563 kbps | 29.970 fps
A_VORBIS | 192 Kbps | 48.0 KHz | 2 channels | 3h 25mn | 973 MB
Genre: eLearning Video / Development, Programming
Become a GraphQL master by learning to build production-ready GraphQL APIs in Node.js and Apollo Server. Learn to secure your API with authentication, handle errors within resolvers, and add in integration and unit tests. You’ll also learn to access realtime data using subscriptions and expand on the capability and flexibility of GraphQL with custom directives!

Published: February 17, 2020

General
Complete name : 3. Custom Directives.mp4
Format : WebM
Format version : Version 2
File size : 67.7 MiB
Duration : 11 min 54 s
Overall bit rate mode : Variable
Overall bit rate : 795 kb/s
Writing application : Lavf57.71.100
Writing library : Lavf57.71.100
FileExtension_Invalid : webm

Video
ID : 2
Format : VP8
Codec ID : V_VP8
Duration : 11 min 54 s
Bit rate : 563 kb/s
Width : 1 920 pixels
Height : 1 080 pixels
Display aspect ratio : 16:9
Frame rate mode : Constant
Frame rate : 29.970 (30000/1001) FPS
Compression mode : Lossy
Bits/(Pixel*Frame) : 0.009
Stream size : 47.9 MiB (71%)
Language : English
Default : Yes
Forced : No

Audio
ID : 1
Format : Vorbis
Format settings, Floor : 1
Codec ID : A_VORBIS
Duration : 11 min 54 s
Bit rate mode : Variable
Bit rate : 192 kb/s
Channel(s) : 2 channels
Sampling rate : 48.0 kHz
Compression mode : Lossy
Delay relative to video : -3 ms
Stream size : 16.4 MiB (24%)
Writing application : Lavc57.89.100
Language : English
Default : Yes
Forced : No


https://rapidgator.net/file/65a98ed0abe680de88cf9edfd3148d84/m97sc.Frontendmasters..Advanced.GraphQL.v2.2020.part01.rar.html
https://rapidgator.net/file/e29abb56818af2cd52776d15783f6a96/m97sc.Frontendmasters..Advanced.GraphQL.v2.2020.part02.rar.html
https://rapidgator.net/file/cd546fd25ec9043ddf2332040fcb2c2c/m97sc.Frontendmasters..Advanced.GraphQL.v2.2020.part03.rar.html
https://rapidgator.net/file/0a4fac43da57c737228e66759d328ca0/m97sc.Frontendmasters..Advanced.GraphQL.v2.2020.part04.rar.html
https://rapidgator.net/file/4846c8597ed8a2cc1f3cbf8800f372eb/m97sc.Frontendmasters..Advanced.GraphQL.v2.2020.part05.rar.html
https://rapidgator.net/file/5eb5797f5a97732489b9f50a056a3dfb/m97sc.Frontendmasters..Advanced.GraphQL.v2.2020.part06.rar.html
https://rapidgator.net/file/28c28bd6e9f86a2755718daff39332cc/m97sc.Frontendmasters..Advanced.GraphQL.v2.2020.part07.rar.html
https://rapidgator.net/file/250203b333006e46cb2d99143e2f4240/m97sc.Frontendmasters..Advanced.GraphQL.v2.2020.part08.rar.html
https://rapidgator.net/file/47280047b2fa7dd9ed57feb327a89f08/m97sc.Frontendmasters..Advanced.GraphQL.v2.2020.part09.rar.html
https://rapidgator.net/file/a9470978aa453e6c5d35b42c82b008cf/m97sc.Frontendmasters..Advanced.GraphQL.v2.2020.part10.rar.html

https://nitroflare.com/view/7F1602453703FA0/m97sc.Frontendmasters..Advanced.GraphQL.v2.2020.part01.rar
https://nitroflare.com/view/3872400A4C8D9B5/m97sc.Frontendmasters..Advanced.GraphQL.v2.2020.part02.rar
https://nitroflare.com/view/FB4BE571276A548/m97sc.Frontendmasters..Advanced.GraphQL.v2.2020.part03.rar
https://nitroflare.com/view/A3048BA93D21C53/m97sc.Frontendmasters..Advanced.GraphQL.v2.2020.part04.rar
https://nitroflare.com/view/07E63DB51C11DE7/m97sc.Frontendmasters..Advanced.GraphQL.v2.2020.part05.rar
https://nitroflare.com/view/0C830612A75EF10/m97sc.Frontendmasters..Advanced.GraphQL.v2.2020.part06.rar
https://nitroflare.com/view/57659660C83BD0F/m97sc.Frontendmasters..Advanced.GraphQL.v2.2020.part07.rar
https://nitroflare.com/view/9286C3C5572F798/m97sc.Frontendmasters..Advanced.GraphQL.v2.2020.part08.rar
https://nitroflare.com/view/E3B1AC68EFEE654/m97sc.Frontendmasters..Advanced.GraphQL.v2.2020.part09.rar
https://nitroflare.com/view/9653C5E746100B3/m97sc.Frontendmasters..Advanced.GraphQL.v2.2020.part10.rar

Links are Interchangeable – No Password – Single Extraction

- No Comments on this Post -