Lick Library – Bass Guitar From Scratch

Lick Library – Bass Guitar From Scratch
DVDRip | English | MP4 | 1024 x 576 | AVC ~1400 kbps | 25 fps
AAC 128 Kbps 48.0 KHz | 2 channels | 01:36:18 | 1.02 GB
Genre: eLearning Video / Guitar lesson
A complete bass guitar course for absolute beginners with Phil Williams This easy-to-follow tutorial is ideal if you’ve just bought your first bass guitar, or if there’s been a guitar sitting around somewhere just waiting to be played… This DVD will take you from novice level through to intermediate level. Yet it requires no prior knowledge at all: it truly is for someone starting "from scratch".

Slowly but surely, the tutor guides you through all the things that a beginner needs to know and, very importantly, points out what can go wrong. Each of the carefully designed chapters introduce commonly used scales and technique gradually and strategically, along with some practical theory – nothing too demanding, just enough to help you understand what you’re doing and why.

You’ll soon be playing scales, picking out melodies and, hopefully, writing some songs of your own! Making music has never been so easy!

Chapters:

Introduction
Introduction To Bass
Playing Styles
Tuning Tips
Motor Skills Exercises
Musical Exercises
Plectrum Playing Styles
12 Bar Blues
Bass Accessories
Influential Bassists

General
Complete name : 08 – 12 Bar Blues.mp4
Format : MPEG-4
Format profile : Base Media
Codec ID : isom
File size : 130 MiB
Duration : 11mn 55s
Overall bit rate mode : Variable
Overall bit rate : 1 530 Kbps
Encoded date : UTC 2015-04-23 17:19:16
Tagged date : UTC 2015-04-23 17:19:16

Video
ID : 1
Format : AVC
Format/Info : Advanced Video Codec
Format profile : [email protected]
Format settings, CABAC : Yes
Format settings, ReFrames : 5 frames
Codec ID : avc1
Codec ID/Info : Advanced Video Coding
Duration : 11mn 55s
Bit rate : 1 400 Kbps
Maximum bit rate : 3 090 Kbps
Width : 1 024 pixels
Height : 576 pixels
Display aspect ratio : 16:9
Frame rate mode : Constant
Frame rate : 25.000 fps
Color space : YUV
Chroma subsampling : 4:2:0
Bit depth : 8 bits
Scan type : Progressive
Bits/(Pixel*Frame) : 0.095
Stream size : 119 MiB (91%)
Writing library : x264 core 144 r2525kMod 40bb568
Encoding settings : cabac=1 / ref=5 / deblock=1:0:0 / analyse=0x3:0x113 / me=umh / subme=8 / psy=1 / fade_compensate=0.00 / psy_rd=1.00:0.00 / mixed_ref=1 / me_range=16 / chroma_me=1 / trellis=1 / 8x8dct=1 / cqm=0 / deadzone=21,11 / fast_pskip=1 / chroma_qp_offset=-2 / threads=12 / lookahead_threads=2 / sliced_threads=0 / nr=0 / decimate=1 / interlaced=0 / bluray_compat=0 / constrained_intra=0 / fgo=0 / bframes=3 / b_pyramid=2 / b_adapt=2 / b_bias=0 / direct=3 / weightb=1 / open_gop=0 / weightp=2 / keyint=250 / keyint_min=25 / scenecut=40 / intra_refresh=0 / rc_lookahead=50 / rc=2pass / mbtree=1 / bitrate=1400 / ratetol=1.0 / qcomp=0.60 / qpmin=0 / qpmax=69 / qpstep=4 / cplxblur=20.0 / qblur=0.5 / ip_ratio=1.40 / aq=1:1.00
Encoded date : UTC 2015-04-23 17:19:16
Tagged date : UTC 2015-04-23 17:19:17

Audio
ID : 2
Format : AAC
Format/Info : Advanced Audio Codec
Format profile : LC
Codec ID : 40
Duration : 11mn 55s
Bit rate mode : Variable
Bit rate : 128 Kbps
Maximum bit rate : 137 Kbps
Channel(s) : 2 channels
Channel positions : Front: L R
Sampling rate : 48.0 KHz
Compression mode : Lossy
Delay relative to video : -3s 333ms
Stream size : 10.9 MiB (8%)
Encoded date : UTC 2015-04-23 17:14:18
Tagged date : UTC 2015-04-23 17:19:17

Screenshots




https://rapidgator.net/file/8d6ebdeab507bddfb42caea9bdf6a888/tkwm8.Lick.Library..Bass.Guitar.From.Scratch.part01.rar.html
https://rapidgator.net/file/b0367f3137ee81fc024c1ec106fa2f52/tkwm8.Lick.Library..Bass.Guitar.From.Scratch.part02.rar.html
https://rapidgator.net/file/6e9f8ac9f7b401e2f2223e37a5731b59/tkwm8.Lick.Library..Bass.Guitar.From.Scratch.part03.rar.html
https://rapidgator.net/file/cafc6ebc248539fc68ed44cc68992ae3/tkwm8.Lick.Library..Bass.Guitar.From.Scratch.part04.rar.html
https://rapidgator.net/file/4ae6ca6bc70af0707b672205ff750a55/tkwm8.Lick.Library..Bass.Guitar.From.Scratch.part05.rar.html
https://rapidgator.net/file/b77c3cc03178a2142cfed0bf60d02765/tkwm8.Lick.Library..Bass.Guitar.From.Scratch.part06.rar.html
https://rapidgator.net/file/c000505d7cdcb10f209914c21a9c22f8/tkwm8.Lick.Library..Bass.Guitar.From.Scratch.part07.rar.html
https://rapidgator.net/file/c4cd7a8f483d7b696fda8c355f4014af/tkwm8.Lick.Library..Bass.Guitar.From.Scratch.part08.rar.html
https://rapidgator.net/file/3e167a97806d669d58b4848a5621a165/tkwm8.Lick.Library..Bass.Guitar.From.Scratch.part09.rar.html
https://rapidgator.net/file/f5170910b00187b259d61be9c92dd33d/tkwm8.Lick.Library..Bass.Guitar.From.Scratch.part10.rar.html

https://nitroflare.com/view/8ACC270C6358BD6/tkwm8.Lick.Library..Bass.Guitar.From.Scratch.part01.rar
https://nitroflare.com/view/788B4E0CCBFAEE4/tkwm8.Lick.Library..Bass.Guitar.From.Scratch.part02.rar
https://nitroflare.com/view/D62DED3932EA7FD/tkwm8.Lick.Library..Bass.Guitar.From.Scratch.part03.rar
https://nitroflare.com/view/1E1D10626A77CC6/tkwm8.Lick.Library..Bass.Guitar.From.Scratch.part04.rar
https://nitroflare.com/view/9846EC40764AA0D/tkwm8.Lick.Library..Bass.Guitar.From.Scratch.part05.rar
https://nitroflare.com/view/A4E75B0CACFAAEC/tkwm8.Lick.Library..Bass.Guitar.From.Scratch.part06.rar
https://nitroflare.com/view/B42CA3CE5ECA1E9/tkwm8.Lick.Library..Bass.Guitar.From.Scratch.part07.rar
https://nitroflare.com/view/CACD0FFA8DC30DF/tkwm8.Lick.Library..Bass.Guitar.From.Scratch.part08.rar
https://nitroflare.com/view/61A4DFD0E8D0229/tkwm8.Lick.Library..Bass.Guitar.From.Scratch.part09.rar
https://nitroflare.com/view/A9A70281F463F7C/tkwm8.Lick.Library..Bass.Guitar.From.Scratch.part10.rar

Links are Interchangeable – No Password – Single Extraction

- No Comments on this Post -

Leave a Reply