Melodic Phrasing Masterclass With Jake Willson (2018)

Melodic Phrasing Masterclass with Jake Willson (2018)
WEBRip | English | MP4 + PDF + MP3 | 1280 x 720 | AVC ~2979 kbps | 25 fps
AAC 317 Kbps 48.0 KHz | 2 channels | 01:09:43 | 1.23 GB
Genre: eLearning Video / Guitar lesson
Take the guesswork out of melodic playing and create more impact with your lines, using Jake Willson’s brand new and hugely in-depth Melodic Phrasing Masterclass!

Jake says ‘How to play and phrase melodically is a subject I’m asked about all the time and the answer is often far too complex to get across in even a few ‘one to one’ lessons. So I thought I’d design this huge, in-depth course specifically to make you a more melodic and musical guitarist.

This masterclass will give you a step-by-step method, that will take the guesswork out of melodic playing. Whether you’re composing or improvising, this masterclass will help you to make better note choices and give you all the tools you need to create more adaptable and melodic phrases in your own playing.’

After a brief introduction video, Jake jumps right in, getting you started with the core of this masterclass, a hugely in-depth PDF. We’re not joking when we say ‘huge’ either – Jake seriously went to town with this masterclass and has written a ‘gold mine’ of over 16,000 words worth of explanations, tips, tricks and knowledge that you can pour into your playing. There’s a reason why he’s one of the best and it’s abundantly evident in this masterclass!

In the exercises Jake puts the fundamentals of melody under the microscope. Bringing you along for the journey, he dives deep into the ‘how’ and ‘why’ behind each exercise. Doing this is going to help you to develop an understanding of how melody interacts with harmony and rhythm. You’ll get a plethora of exercises, each serving the purpose of laying down the ground work required to make your playing more melodical.

After he has taken you through the fundamentals and you’re clear of the exercise section, Jake outlines his own personal approach to developing melodic ideas and phrasing. In this section you’ll get 22 licks (11 over each style backing), and not only will you learn some truly outstanding guitar licks, but Jake will ‘reveal all’ as he analyses the execution and concepts behind them one at a time in the masterclass PDF.

When all is said and done, Jake has written two backing tracks in different styles especially for this masterclass. The backings are stripped back and are structured like songs, leaving you enough room to apply everything you’ve learned to come up with your own melodies.

As ever, we have included everything you need to practise and perfect the material in this package. There are video and audio tracks for you to watch/listen and study, accurately transcribed TAB/notation for you to analyse and master, and backing tracks for everything!

So maybe you’ve been wondering how the pro’s ‘think’ when coming up with the amazing guitar lines you hear from your favourite players. Or maybe you just want to take massive steps towards being able to really say something with your music. Either way, Jake’s masterclass is going to give you invaluable insights into all of this and more, as you learn how to make your own playing vastly more melodic.

What’s included…
Introduction Video
33 Page Masterclass PDF
61 Exercises (Audio/Video)
22 Licks (Audio/Video)
Lick Backings
2 Full Backings
Complete TAB/Notation (в PNG)

General
Complete name : Introduction.MP4
Format : MPEG-4
Format profile : Base Media / Version 2
Codec ID : mp42 (mp42/mp41)
File size : 89.7 MiB
Duration : 3 min 47 s
Overall bit rate mode : Variable
Overall bit rate : 3 302 kb/s
Encoded date : UTC 2018-10-17 13:42:17
Tagged date : UTC 2018-10-17 13:42:23
TIM : 00:00:00:00
TSC : 25
TSZ : 1

Video
ID : 1
Format : AVC
Format/Info : Advanced Video Codec
Format profile : [email protected]
Format settings : CABAC / 4 Ref Frames
Format settings, CABAC : Yes
Format settings, RefFrames : 4 frames
Codec ID : avc1
Codec ID/Info : Advanced Video Coding
Duration : 3 min 47 s
Bit rate : 2 979 kb/s
Width : 1 280 pixels
Height : 720 pixels
Display aspect ratio : 16:9
Frame rate mode : Constant
Frame rate : 25.000 FPS
Color space : YUV
Chroma subsampling : 4:2:0
Bit depth : 8 bits
Scan type : Progressive
Bits/(Pixel*Frame) : 0.129
Stream size : 80.9 MiB (90%)
Language : English
Encoded date : UTC 2018-10-17 13:42:17
Tagged date : UTC 2018-10-17 13:42:17
Color range : Limited
Color primaries : BT.709
Transfer characteristics : BT.709
Matrix coefficients : BT.709

Audio
ID : 2
Format : AAC
Format/Info : Advanced Audio Codec
Format profile : LC
Codec ID : mp4a-40-2
Duration : 3 min 47 s
Source duration : 3 min 47 s
Bit rate mode : Variable
Bit rate : 317 kb/s
Maximum bit rate : 390 kb/s
Channel(s) : 2 channels
Channel positions : Front: L R
Sampling rate : 48.0 kHz
Frame rate : 46.875 FPS (1024 SPF)
Compression mode : Lossy
Stream size : 8.62 MiB (10%)
Source stream size : 8.62 MiB (10%)
Language : English
Encoded date : UTC 2018-10-17 13:42:17
Tagged date : UTC 2018-10-17 13:42:17

Screenshots

Download link:


https://rapidgator.net/file/d8e7d483fa78ea891e4e21d2e836d09d/dtm4i.Melodic.Phrasing.Masterclass.with.Jake.Willson.2018.part1.rar.html
https://rapidgator.net/file/fd735e860911d3abb4d9b6ba390b5cde/dtm4i.Melodic.Phrasing.Masterclass.with.Jake.Willson.2018.part2.rar.html
https://rapidgator.net/file/56dea61fc988d1d3ac22d13e32021e1e/dtm4i.Melodic.Phrasing.Masterclass.with.Jake.Willson.2018.part3.rar.html
https://rapidgator.net/file/a377382b974fa6ea30b2d2d980cbce39/dtm4i.Melodic.Phrasing.Masterclass.with.Jake.Willson.2018.part4.rar.html
https://rapidgator.net/file/9cbfcb5c8bca0387af325697b2d3f3af/dtm4i.Melodic.Phrasing.Masterclass.with.Jake.Willson.2018.part5.rar.html
https://rapidgator.net/file/578f979cf25e3425ee4fd07a6902e54f/dtm4i.Melodic.Phrasing.Masterclass.with.Jake.Willson.2018.part6.rar.html
https://rapidgator.net/file/e8f20a2f5103c40a381b8b25ec6fdbda/dtm4i.Melodic.Phrasing.Masterclass.with.Jake.Willson.2018.part7.rar.html

Leave a Reply