Never Slice Again 2.0 – Golf Instruction

Never Slice Again 2.0 – Golf Instruction
DVDRip | English | MOV | 640 x 480 | AVC ~1328 Kbps | 29.970 fps
AAC | 128 Kbps | 48.0 KHz | 2 channels | 1h 13mn | 770 MB
Genre: eLearning Video / Golf
Finally, a video that demystifies the cause of the slice, and offers a step-by-step method to rid your game of the malady forever. Brian Manzella created a simple 10-step program, designed so you will not only "Never Slice Again," but you will begin to build a powerful professional style golf swing.

Unforgettable concepts like the "Twistaway" and "The Movie Screen" will fast become old friends as you incorporate principles that have helped every students and teachers around the world.

General
Complete name : manzellaneversliceagain2.mov
Format : MPEG-4
Format profile : QuickTime
Codec ID : qt 2005.03 (qt )
File size : 770 MiB
Duration : 1 h 13 min
Overall bit rate : 1 462 kb/s
Encoded date : UTC 2006-11-25 07:00:12
Tagged date : UTC 2006-11-25 07:01:43

Video
ID : 1
Format : AVC
Format/Info : Advanced Video Codec
Format profile : [email protected]
Format settings : 2 Ref Frames
Format settings, CABAC : No
Format settings, RefFrames : 2 frames
Codec ID : avc1
Codec ID/Info : Advanced Video Coding
Duration : 1 h 13 min
Bit rate : 1 328 kb/s
Width : 640 pixels
Height : 480 pixels
Display aspect ratio : 4:3
Frame rate mode : Constant
Frame rate : 29.970 (29970/1000) FPS
Color space : YUV
Chroma subsampling : 4:2:0
Bit depth : 8 bits
Scan type : Progressive
Bits/(Pixel*Frame) : 0.144
Stream size : 700 MiB (91%)
Language : English
Encoded date : UTC 2006-11-25 07:00:01
Tagged date : UTC 2006-11-25 07:01:43
Color range : Limited
Color primaries : BT.601 NTSC
Transfer characteristics : BT.709
Matrix coefficients : BT.601
Menus : 4

Audio
ID : 2
Format : AAC
Format/Info : Advanced Audio Codec
Format profile : LC
Codec ID : mp4a-40-2
Duration : 1 h 13 min
Source duration : 1 h 13 min
Bit rate mode : Constant
Bit rate : 128 kb/s
Channel(s) : 2 channels
Channel positions : Front: L R
Sampling rate : 48.0 kHz
Frame rate : 46.875 FPS (1024 SPF)
Compression mode : Lossy
Stream size : 67.5 MiB (9%)
Source stream size : 67.5 MiB (9%)
Language : English
Encoded date : UTC 2006-11-25 07:00:02
Tagged date : UTC 2006-11-25 07:01:43

Other
ID : 3
Type : Time code
Format : QuickTime TC
Duration : 1 h 13 min
Time code of first frame : 00:00:00;00
Time code, striped : Yes
Language : English
Encoded date : UTC 2006-11-25 07:00:02
Tagged date : UTC 2006-11-25 07:01:43

Menu
ID : 4
Codec ID : text
Duration : 1 h 13 min
Language : English
Encoded date : UTC 2006-11-25 07:00:02
Tagged date : UTC 2006-11-25 07:01:43
Menu For : 1
Source duration : 3973939
Source frame count : 13
Source stream size : 1080
Frame count : 13
Stream size : 1080
Bit rate mode : VBR
kgit : chap

Screenshots


https://rapidgator.net/file/daa0d9fbd9f7af04ba09125d013b051e/vwle4.Never.Slice.Again.2.0..Golf.Instruction.part1.rar.html
https://rapidgator.net/file/ee2f69d3ab7b93bd26e2cf0c5b6f3152/vwle4.Never.Slice.Again.2.0..Golf.Instruction.part2.rar.html
https://rapidgator.net/file/34356bbe356b0ee31487c4c817c8ac50/vwle4.Never.Slice.Again.2.0..Golf.Instruction.part3.rar.html
https://rapidgator.net/file/740a3716baac8aa7cf83d09724db1edb/vwle4.Never.Slice.Again.2.0..Golf.Instruction.part4.rar.html
https://rapidgator.net/file/fa9e580ffb87f39584dc7eacf26a28c8/vwle4.Never.Slice.Again.2.0..Golf.Instruction.part5.rar.html
https://rapidgator.net/file/0cfe0da28ef77537bd7be3c49e4bcf2f/vwle4.Never.Slice.Again.2.0..Golf.Instruction.part6.rar.html
https://rapidgator.net/file/4272316c190466143157b3c21fee49de/vwle4.Never.Slice.Again.2.0..Golf.Instruction.part7.rar.html
https://rapidgator.net/file/0e5ee92adc756c9df71b9d7dcffb5577/vwle4.Never.Slice.Again.2.0..Golf.Instruction.part8.rar.html

http://nitroflare.com/view/213E6B2B4B5A499/vwle4.Never.Slice.Again.2.0..Golf.Instruction.part1.rar
http://nitroflare.com/view/7E3FEABDD9F3F5D/vwle4.Never.Slice.Again.2.0..Golf.Instruction.part2.rar
http://nitroflare.com/view/74B2A1C919A8A38/vwle4.Never.Slice.Again.2.0..Golf.Instruction.part3.rar
http://nitroflare.com/view/C7B13D6ED540C0E/vwle4.Never.Slice.Again.2.0..Golf.Instruction.part4.rar
http://nitroflare.com/view/3804B7549D1A02B/vwle4.Never.Slice.Again.2.0..Golf.Instruction.part5.rar
http://nitroflare.com/view/2FB9A04A2C3D631/vwle4.Never.Slice.Again.2.0..Golf.Instruction.part6.rar
http://nitroflare.com/view/6A21A8B7B643C54/vwle4.Never.Slice.Again.2.0..Golf.Instruction.part7.rar
http://nitroflare.com/view/2362205FD902A57/vwle4.Never.Slice.Again.2.0..Golf.Instruction.part8.rar

Links are Interchangeable – No Password – Single Extraction

Leave a Reply