Novelty Instrumentals of Rev. Gary Davis

Novelty Instrumentals of Rev. Gary Davis
DVD5 | English | VIDEO_TS | 720 x 480 | MPEG2 ~4000 kbps | 29.970 fps
AC-3 192 Kbps 48.0 KHz | 2 channels | 01:33:00 | 3.81 GB
Genre: eLearning Video / Guitar lesson
In this lesson Ernie Hawkins teaches three Rev. Davis arrangements that will challenge your fingers. Rev. Gary Davis’s tour de force in concert was his Soldiers March. This is a multipart instrumental played in the Key of F and C and is a showcase in demonstrating the genius of Rev. Davis’s playing and arranging skills.

Few country blues guitarists played in the Key of F but Rev. Davis explored this key with religious as well as old pop standards. Darktown Strutters Ball is a fascinating arrangement that captures the atmosphere of the 1920s. Rev. Davis use to tell his students that playing with a bottleneck was "cheating". Yet his Whistlin’ Blues uses this technique combined with an Open D6 tuning to create an unusual boogie piano sound.
Ernie Hawkins teaches each tune phrase by phrase and carefully shows you the right hand picking as well as the left hand fingerings that were unique to Rev. Davis’s approach.

also You can find my other great:


https://rapu.world/search/?category_slug=&query=Guitar&language=7&age=&author=ParRus&search=1

General
Complete name : VTS_02_2.VOB
Format : MPEG-PS
File size : 1 024 MiB
Duration : 33 min 22 s
Overall bit rate mode : Constant
Overall bit rate : 4 289 kb/s

Video
ID : 224 (0xE0)
Format : MPEG Video
Format version : Version 2
Format profile : [email protected]
Format settings : CustomMatrix / BVOP
Format settings, BVOP : Yes
Format settings, Matrix : Custom
Format settings, GOP : M=3, N=15
Format settings, picture structure : Frame
Duration : 33 min 22 s
Bit rate mode : Constant
Bit rate : 4 000 kb/s
Width : 720 pixels
Height : 480 pixels
Display aspect ratio : 4:3
Frame rate : 29.970 (30000/1001) FPS
Standard : NTSC
Color space : YUV
Chroma subsampling : 4:2:0
Bit depth : 8 bits
Scan type : Interlaced
Scan order : Top Field First
Compression mode : Lossy
Bits/(Pixel*Frame) : 0.386
Time code of first frame : 01:33:21;08
Time code source : Group of pictures header
GOP, Open/Closed : Closed
Stream size : 958 MiB (94%)

Audio
ID : 189 (0xBD)-128 (0x80)
Format : AC-3
Format/Info : Audio Coding 3
Muxing mode : DVD-Video
Duration : 33 min 22 s
Bit rate mode : Constant
Bit rate : 192 kb/s
Channel(s) : 2 channels
Channel positions : Front: L R
Sampling rate : 48.0 kHz
Frame rate : 31.250 FPS (1536 SPF)
Bit depth : 16 bits
Compression mode : Lossy
Delay relative to video : -436 ms
Stream size : 45.8 MiB (4%)
Service kind : Complete Main

Menu

Screenshots

Download link:


https://rapidgator.net/file/2fd60bfb3cbfe8b325d14b42409e8c34/y1dnf.Novelty.Instrumentals.of.Rev..Gary.Davis.part1.rar.html
https://rapidgator.net/file/063ed4a8fc595f2732d7ed48d1b57d02/y1dnf.Novelty.Instrumentals.of.Rev..Gary.Davis.part2.rar.html
https://rapidgator.net/file/164fd27ca8d141cc517c6430b1355e2e/y1dnf.Novelty.Instrumentals.of.Rev..Gary.Davis.part3.rar.html
https://rapidgator.net/file/f0feea544182d90976e8be130583b53c/y1dnf.Novelty.Instrumentals.of.Rev..Gary.Davis.part4.rar.html
https://rapidgator.net/file/827d1accd65c885f5a9fdeb5e5c10c31/y1dnf.Novelty.Instrumentals.of.Rev..Gary.Davis.part5.rar.html
https://rapidgator.net/file/5434ad7e8b51c95b90145f1703d7134f/y1dnf.Novelty.Instrumentals.of.Rev..Gary.Davis.part6.rar.html
https://rapidgator.net/file/3a384ce5a7c18e81b9504334ed5e4141/y1dnf.Novelty.Instrumentals.of.Rev..Gary.Davis.part7.rar.html
https://rapidgator.net/file/ed96848859093d0d7c7c7a5bb1563064/y1dnf.Novelty.Instrumentals.of.Rev..Gary.Davis.part8.rar.html

http://nitroflare.com/view/C6FD11AC42BEDFC/y1dnf.Novelty.Instrumentals.of.Rev..Gary.Davis.part1.rar
http://nitroflare.com/view/E1D155956A7E007/y1dnf.Novelty.Instrumentals.of.Rev..Gary.Davis.part2.rar
http://nitroflare.com/view/8A5ACE944FBB311/y1dnf.Novelty.Instrumentals.of.Rev..Gary.Davis.part3.rar
http://nitroflare.com/view/CD00011CD838DA0/y1dnf.Novelty.Instrumentals.of.Rev..Gary.Davis.part4.rar
http://nitroflare.com/view/9AD8FB96E2B58DA/y1dnf.Novelty.Instrumentals.of.Rev..Gary.Davis.part5.rar
http://nitroflare.com/view/77ADC2FB32E01DA/y1dnf.Novelty.Instrumentals.of.Rev..Gary.Davis.part6.rar
http://nitroflare.com/view/E32F2909058B8D1/y1dnf.Novelty.Instrumentals.of.Rev..Gary.Davis.part7.rar
http://nitroflare.com/view/EC9C05EB52DD50D/y1dnf.Novelty.Instrumentals.of.Rev..Gary.Davis.part8.rar

Links are Interchangeable – No Password – Single Extraction

Leave a Reply