TrueFire – Jam Night Volume 3 with Andy Aledort (2015)

TrueFire – Jam Night Volume 3
(.MP4) in interactive shell | English | PDF tabs + MP3 jam tracks | 864 x 486 | AVC ~768 kbps | 29.970 fps
AAC 114 Kbps 44.1 KHz | 2 channels | 244 minutes | 1.75 GB
Genre: eLearning Video / Guitar lesson
For many musicians, going out to the local jam and playing with friends is their primary, if not only musical outlet. The goal of Andy Aledort’s Jam Night series is to broaden your skills as both a rhythm guitarist and soloist, with specific instruction directed within the scope of standard, tried-and-true open jam night songs.

Each volume of the series includes 10 of the most popular songs played at open jams, all over the world on a nightly basis. The Jam Night series will help you develop both your rhythm guitar and soloing chops while teaching you a variety of ways to navigate through popular music’s most common song progressions and stylings.

"I own all of the videos in Andy’s Jam Night series. Learning two rhythm and two leads for each song was groundbreaking for me as it really opened up the possibilities of guitar arrangement for me. It’s also a joy to learn full songs and rhythms and leads and play along to the jam tracks. Really enjoy Andy as a teacher and his style." – Tom Sweet, TrueFire Student

"In every edition of the jam night series, we’re going to look at 10 chord progressions that are based on songs that are the most popular songs played at open jams all over the world, on a nightly basis."

My goal is to give you all the tools you need, so that you’ll walk into that environment feeling confident, knowing that you can get up there stand there with the best of them and have at your disposal a variety of techniques for playing interesting rhythm parts, as well as expressing yourself through a variety of techniques for soloing."

Jam Night: Volume 3 features 10 new series of lessons, each themed to a popular progression used in a popular jam tune, and each series teaching two rhythm approaches and two approaches for soloing and improvisation over that progression.

The 10 progressions and grooves are patterned after the Beatles’ While My Guitar Gently Weeps and Come Together, Steve Cropper’s work on Hard to Handle, Bad Company’s Can’t Get Enough, Muddy Waters’ Hoochie Coochie Man, T-Bone Walker’s immortal classic Stormy Monday ala The Allman Brothers, Allman’s cover version of Junior Wells’ blues classic You Don’t Love Me, Rolling Stones’ Wild Horses, Grateful Dead’s Casey Jones and Goin’ Down the Road.

Working with Andy’s Jam Night series will equip you with the three most important skills you’ll need to take to the jam stage; command of the popular song list, a diverse rhythm guitar vocabulary, and the ability to improvise fresh solos over popular song progressions.

Command of the Popular Song List: There are really only a handful of songs that are called over and over again at the local jams – they’re the ‘standards’ of rock and popular music. You don’t need to learn them note-for-note like you would for a cover, but you do need to be familiar with their basic structure.

Diverse Rhythm Guitar Vocabulary: You’ll be playing a lot of rhythm guitar at the jams. The better your rhythm chops, the more you’ll get asked to the stage because EVERYBODY loves to play with a strong rhythm section. Again, while your rhythm parts might be inspired by the original recorded version – you MUST bring some originality and diversity to the bandstand to keep things interesting over what could be a 15-minute jam on that song.

Improvising Over Popular Progressions: Jam songs are selected because they’re familiar to players and audiences alike, AND they provide an interesting and very jam-friendly progression to play over. Your blues chops will certainly be helpful BUT they won’t take you all the way there. You MUST be able to navigate your improvisations through a variety of other 3- and 4-chord progressions.

For each of these 10 popular jams, Andy will first overview the vibe, structure and progression of the tune. He’ll then demonstrate and breakdown two rhythm guitar approaches, and then two lead guitar approaches – 20 rhythm approaches and 20 lead approaches in all.

Everything is tabbed and notated, plus you’ll get all of the rhythm tracks to work with on your own.

General
Complete name 3.mp4
Format : MPEG-4
Format profile : Base Media
Codec ID : isom (isom/iso2/avc1/mp41)
File size : 32.4 MiB
Duration : 5mn 2s
Overall bit rate mode : Variable
Overall bit rate : 899 Kbps
Writing application : Lavf55.19.104

Video
ID : 1
Format : AVC
Format/Info : Advanced Video Codec
Format profile : [email protected]
Format settings, CABAC : Yes
Format settings, ReFrames : 4 frames
Codec ID : avc1
Codec ID/Info : Advanced Video Coding
Duration : 5mn 2s
Bit rate : 768 Kbps
Width : 864 pixels
Height : 486 pixels
Display aspect ratio : 16:9
Frame rate mode : Constant
Frame rate : 29.970 (30000/1001) fps
Color space : YUV
Chroma subsampling : 4:2:0
Bit depth : 8 bits
Scan type : Progressive
Bits/(Pixel*Frame) : 0.061
Stream size : 28.0 MiB (86%)
Writing library : x264 core 119
Encoding settings : cabac=1 / ref=1 / deblock=1:0:0 / analyse=0x1:0x1 / me=dia / subme=1 / psy=1 / psy_rd=1.00:0.00 / mixed_ref=0 / me_range=16 / chroma_me=1 / trellis=0 / 8x8dct=0 / cqm=0 / deadzone=21,11 / fast_pskip=1 / chroma_qp_offset=0 / threads=4 / sliced_threads=0 / nr=0 / decimate=1 / interlaced=0 / bluray_compat=0 / constrained_intra=0 / bframes=3 / b_pyramid=2 / b_adapt=1 / b_bias=0 / direct=1 / weightb=1 / open_gop=0 / weightp=1 / keyint=250 / keyint_min=25 / scenecut=40 / intra_refresh=0 / rc=abr / mbtree=0 / bitrate=768 / ratetol=1.0 / qcomp=0.60 / qpmin=0 / qpmax=69 / qpstep=4 / ip_ratio=1.40 / pb_ratio=1.30 / aq=1:1.00

Audio
ID : 2
Format : AAC
Format/Info : Advanced Audio Codec
Format profile : LC
Codec ID : 40
Duration : 5mn 2s
Bit rate mode : Variable
Bit rate : 114 Kbps
Maximum bit rate : 192 Kbps
Channel(s) : 2 channels
Channel positions : Front: L R
Sampling rate : 44.1 KHz
Frame rate : 43.066 fps (1024 spf)
Compression mode : Lossy
Stream size : 4.13 MiB (13%)
Default : Yes
Alternate group : 1

Screenshots


https://rapidgator.net/file/b2c8cd252f7a1301b8ab19530b537c54/ya5gg.TrueFire..Jam.Night.Volume.3.with.Andy.Aledort.2015.part01.rar.html
https://rapidgator.net/file/a513ae20e35cc32517fd10d1845e2e4b/ya5gg.TrueFire..Jam.Night.Volume.3.with.Andy.Aledort.2015.part02.rar.html
https://rapidgator.net/file/718453df643b76fec3468dae6f793f77/ya5gg.TrueFire..Jam.Night.Volume.3.with.Andy.Aledort.2015.part03.rar.html
https://rapidgator.net/file/1530af8be932db29a902f7d56677cc06/ya5gg.TrueFire..Jam.Night.Volume.3.with.Andy.Aledort.2015.part04.rar.html
https://rapidgator.net/file/f00d684f0887d70275206afc3d2f868d/ya5gg.TrueFire..Jam.Night.Volume.3.with.Andy.Aledort.2015.part05.rar.html
https://rapidgator.net/file/807914248b3466930ecbc3ec8f091801/ya5gg.TrueFire..Jam.Night.Volume.3.with.Andy.Aledort.2015.part06.rar.html
https://rapidgator.net/file/7953686209582872a58838f0912b64ef/ya5gg.TrueFire..Jam.Night.Volume.3.with.Andy.Aledort.2015.part07.rar.html
https://rapidgator.net/file/2413eecbeb544c2691fbc188e19cf2b9/ya5gg.TrueFire..Jam.Night.Volume.3.with.Andy.Aledort.2015.part08.rar.html
https://rapidgator.net/file/14421932efd0fcd723f28eba5f1d7964/ya5gg.TrueFire..Jam.Night.Volume.3.with.Andy.Aledort.2015.part09.rar.html

http://nitroflare.com/view/949AC586D668B60/ya5gg.TrueFire..Jam.Night.Volume.3.with.Andy.Aledort.2015.part01.rar
http://nitroflare.com/view/5F4A34A97FF0D00/ya5gg.TrueFire..Jam.Night.Volume.3.with.Andy.Aledort.2015.part02.rar
http://nitroflare.com/view/F134D204A85835F/ya5gg.TrueFire..Jam.Night.Volume.3.with.Andy.Aledort.2015.part03.rar
http://nitroflare.com/view/4C60824C835D982/ya5gg.TrueFire..Jam.Night.Volume.3.with.Andy.Aledort.2015.part04.rar
http://nitroflare.com/view/A069A4B30465D4D/ya5gg.TrueFire..Jam.Night.Volume.3.with.Andy.Aledort.2015.part05.rar
http://nitroflare.com/view/28A4F870BDAD814/ya5gg.TrueFire..Jam.Night.Volume.3.with.Andy.Aledort.2015.part06.rar
http://nitroflare.com/view/E86DDAE91A2DEFA/ya5gg.TrueFire..Jam.Night.Volume.3.with.Andy.Aledort.2015.part07.rar
http://nitroflare.com/view/F1C1699A4F5C915/ya5gg.TrueFire..Jam.Night.Volume.3.with.Andy.Aledort.2015.part08.rar
http://nitroflare.com/view/E2BF9A182068AF6/ya5gg.TrueFire..Jam.Night.Volume.3.with.Andy.Aledort.2015.part09.rar

Links are Interchangeable – No Password – Single Extraction

Leave a Reply