Udemy – C++ Programming for Absolute Beginners. Newbie C++ Guide

Udemy – C++ Programming for Absolute Beginners. Newbie C++ Guide
WEBRip | English | MP4 | 1280 x 720 | AVC ~1419 kbps | 30 fps
AAC | 128 Kbps | 44.1 KHz | 2 channels | Subs: English (.srt) | ~4 hours | 2.47 GB
Genre: eLearning Video / Development, Programming
Ace your next Javascript coding interview by mastering data structures and algorithms.

What you’ll learn

The fundamentals of C++
Understand how C++ features help you write compact and efficient code
Learn best practices and avoid pitfalls via useful Do’s and Don’ts
Test your knowledge and expertise with exercises
Write fast and powerful C++ programs, compile the source code, and create executable files
Learn C++ features that allow you to program compact and high-performance C++ applications
Learn how to use the standard library to build robust programs quickly, and get comfortable with high-level programming

Requirements
A computer running Windows, Mac OS X or Linux

Description
C++ is one of the most widely used programming languages today. The language itself is object-oriented, offering you the utmost control over data usage, interface, and resource allocation.

This course covers the fundamentals of programming in C++. Created for the novice programmer, this course assumes no prior knowledge of computer programming. The main elements of the language are introduced step by step in a logical, gradient manner. This approach will give you a solid foundation for writing useful, correct, maintainable, and efficient code.

At the end of this course you’ll have all the skills you need to begin programming in C++. With this complete tutorial, you’ll quickly master the basics, and then move on to more advanced features and concepts.

What you’ll learn in this course:

· The fundamentals of C++

· Understand how C++ features help you write compact and efficient code

· Use concepts such as lambda expressions, move constructors, and assignment operators

· Learn best practices and avoid pitfalls via useful Do’s and Don’ts

· Test your knowledge and expertise with exercises

· Write fast and powerful C++ programs, compile the source code, and create executable files

· Learn C++ features that allow you to program compact and high-performance C++ applications

· Learn how to use the standard library to build robust programs quickly, and get comfortable with high-level programming

Who this course is for:
Anyone that wants to learn how to code using C++.

General
Complete name : 006 Understanding C – Part 2.mp4
Format : MPEG-4
Format profile : Base Media
Codec ID : isom (isom/iso2/avc1/mp41)
File size : 152 MiB
Duration : 13 min 41 s
Overall bit rate : 1 556 kb/s
Writing application : Lavf58.12.100

Video
ID : 1
Format : AVC
Format/Info : Advanced Video Codec
Format profile : [email protected]
Format settings : CABAC / 4 Ref Frames
Format settings, CABAC : Yes
Format settings, RefFrames : 4 frames
Format settings, GOP : M=4, N=60
Codec ID : avc1
Codec ID/Info : Advanced Video Coding
Duration : 13 min 41 s
Bit rate : 1 419 kb/s
Nominal bit rate : 3 000 kb/s
Width : 1 280 pixels
Height : 720 pixels
Display aspect ratio : 16:9
Frame rate mode : Constant
Frame rate : 30.000 FPS
Color space : YUV
Chroma subsampling : 4:2:0
Bit depth : 8 bits
Scan type : Progressive
Bits/(Pixel*Frame) : 0.051
Stream size : 139 MiB (91%)
Writing library : x264 core 148
Encoding settings : cabac=1 / ref=3 / deblock=1:-1:-1 / analyse=0x1:0x111 / me=umh / subme=6 / psy=1 / psy_rd=1.00:0.15 / mixed_ref=1 / me_range=16 / chroma_me=1 / trellis=1 / 8x8dct=0 / cqm=0 / deadzone=21,11 / fast_pskip=1 / chroma_qp_offset=-3 / threads=22 / lookahead_threads=3 / sliced_threads=0 / nr=0 / decimate=1 / interlaced=0 / bluray_compat=0 / constrained_intra=0 / bframes=3 / b_pyramid=2 / b_adapt=1 / b_bias=0 / direct=1 / weightb=1 / open_gop=0 / weightp=2 / keyint=60 / keyint_min=6 / scenecut=0 / intra_refresh=0 / rc_lookahead=60 / rc=cbr / mbtree=1 / bitrate=3000 / ratetol=1.0 / qcomp=0.60 / qpmin=0 / qpmax=69 / qpstep=4 / vbv_maxrate=3000 / vbv_bufsize=6000 / nal_hrd=none / filler=0 / ip_ratio=1.40 / aq=1:1.00

Audio
ID : 2
Format : AAC
Format/Info : Advanced Audio Codec
Format profile : LC
Codec ID : mp4a-40-2
Duration : 13 min 40 s
Bit rate mode : Constant
Bit rate : 128 kb/s
Channel(s) : 2 channels
Channel positions : Front: L R
Sampling rate : 44.1 kHz
Frame rate : 43.066 FPS (1024 SPF)
Compression mode : Lossy
Stream size : 12.5 MiB (8%)
Default : Yes
Alternate group : 1

Screenshots


https://rapidgator.net/file/ca67eec869c2660ca7e7c68e58fb450b/rik14.Udemy..C.Programming.for.Absolute.Beginners..Newbie.C.Guide.part1.rar.html
https://rapidgator.net/file/69aa5d137672209aea90c6e14b1d5331/rik14.Udemy..C.Programming.for.Absolute.Beginners..Newbie.C.Guide.part2.rar.html
https://rapidgator.net/file/3c43f0584567e6d5790bda1bb2135abe/rik14.Udemy..C.Programming.for.Absolute.Beginners..Newbie.C.Guide.part3.rar.html

https://nitroflare.com/view/3D3E85ED437456A/rik14.Udemy..C.Programming.for.Absolute.Beginners..Newbie.C.Guide.part1.rar
https://nitroflare.com/view/2464264684819B1/rik14.Udemy..C.Programming.for.Absolute.Beginners..Newbie.C.Guide.part2.rar
https://nitroflare.com/view/BCC7648690D723B/rik14.Udemy..C.Programming.for.Absolute.Beginners..Newbie.C.Guide.part3.rar

Links are Interchangeable – No Password – Single Extraction

- No Comments on this Post -

Leave a Reply