Udemy – Indian Culinary World – Master the art of Indian Cooking (2020)

Udemy – Indian Culinary World – Master the art of Indian Cooking (2020)WEBRip | English | MP4 | 1280 x 720 | AVC ~3626 kbps | 29.970 fps
AAC | 90.5 Kbps | 48.0 KHz | 2 channels | ~4 hours | 5.42 GB
Genre: eLearning Video / Food & Beverage, Indian CookingSecrets of cooking delicious Indian food, from SizzlingPots – learn how to cook Indian food in just a few steps

What you’ll learn

Master the art of Indian cooking- our comprehensive Foundation course has all the basics you need plus more
Step by step video recipes included ! Make the 25 top restaurant favorite Indian dishes with step by step, detailed recipes based on my cooking patterns
Our unique method of cooking patterns lets you make hundreds of delicious Indian dishes by learning just 9 repeatable “cooking patterns”
Confidently create new dishes on your own
Learn the secrets of spices and techniques such as browning onions and tempering that lets you learn how to cook Indian food
Express your culinary creativity and amaze yourself and your loved ones!
Indian cooking basics learn how to cook in just a few steps
The best and proven way to learn how to cook Indian food

Requirements

All you need is a kitchen for cooking up your curries and having a fantastic time learning to cook Indian food

Description

Hi, welcome to my course on Indian cooking . Love Indian food? Want to make flavorful Indian curries? Then join me in 60 exciting episodes from SizzlingPots Indian Culinary World, and I will prove, that it is not hard to cook Indian food.

I will teach you how to make delicious dishes in your own kitchen and at your own pace. If you are a beginner, then I will show you how to master Indian cooking. If you’re an expert cook, the techniques and methods I have shown here will let you cook smarter, faster, and healthier.

Step by step I will take you through the art of Indian cooking- you will learn about the top spices and herbs that flavor Indian food and techniques like tempering that show how and when to use these ingredients. That’s just the beginning… My unique method of Cooking Patterns will teach you how to make hundreds of tasty creations by following just 9 repeatable patterns. And finally, you will see these patterns in action, as you learn the top 25 restaurant favorite recipes based on these patterns. In no time, you will enter a fascinating world with you as the star.

Sounds interesting? There’s more. I will teach you about the cookware that you will need for cooking Indian food and their replacements. Confused on where to begin? We have it covered with videos that will get you started right away and guide you on stocking up your pantry with essential items. Too many spices to remember? Just learn the magic of five popular Indian spices that impart flavor and taste to Indian cooking.

No more searching the Internet for recipes – now you can create your own unique dishes! Join us at SizzlingPots Indian Culinary World and become certified as an expert in Indian Cooking !

Who this course is for:

Anyone interested in cooking Indian food, this course has valuable content for beginners as well as experts

General
Complete name : 3. Tempering Tadka Technique.mp4
Format : MPEG-4
Format profile : Base Media
Codec ID : isom (isom/avc1/mp42)
File size : 160 MiB
Duration : 6 min 0 s
Overall bit rate mode : Variable
Overall bit rate : 3 719 kb/s
Encoded date : UTC 2015-11-04 15:33:59
Tagged date : UTC 2015-11-04 15:33:59

Video
ID : 1
Format : AVC
Format/Info : Advanced Video Codec
Format profile : [email protected]Format settings : 3 Ref Frames
Format settings, CABAC : No
Format settings, RefFrames : 3 frames
Format settings, GOP : M=1, N=75
Codec ID : avc1
Codec ID/Info : Advanced Video Coding
Duration : 5 min 59 s
Bit rate : 3 626 kb/s
Maximum bit rate : 11.4 Mb/s
Width : 1 280 pixels
Height : 720 pixels
Display aspect ratio : 16:9
Frame rate mode : Constant
Frame rate : 29.970 (30000/1001) FPS
Color space : YUV
Chroma subsampling : 4:2:0
Bit depth : 8 bits
Scan type : Progressive
Bits/(Pixel*Frame) : 0.131
Stream size : 156 MiB (97%)
Writing library : Zencoder Video Encoding System
Encoded date : UTC 2015-11-04 15:31:44
Tagged date : UTC 2015-11-04 15:34:00

Audio
ID : 2
Format : AAC
Format/Info : Advanced Audio Codec
Format profile : LC
Codec ID : mp4a-40-2
Duration : 6 min 0 s
Bit rate mode : Variable
Bit rate : 90.5 kb/s
Maximum bit rate : 105 kb/s
Channel(s) : 2 channels
Channel positions : Front: L R
Sampling rate : 48.0 kHz
Frame rate : 46.875 FPS (1024 SPF)
Compression mode : Lossy
Stream size : 3.88 MiB (2%)
Encoded date : UTC 2015-11-04 15:31:44
Tagged date : UTC 2015-11-04 15:34:00

Screenshots https://rapidgator.net/file/3c0e885eae26f19b999fefeb0f031c5f/ovb2l.Udemy..Indian.Culinary.World..Master.the.art.of.Indian.Cooking.2020.part1.rar.html
https://rapidgator.net/file/b538cff98c31a6a19bbb3d581fa23989/ovb2l.Udemy..Indian.Culinary.World..Master.the.art.of.Indian.Cooking.2020.part2.rar.html
https://rapidgator.net/file/bcb9553f6de107ec02e9670474a9599a/ovb2l.Udemy..Indian.Culinary.World..Master.the.art.of.Indian.Cooking.2020.part3.rar.html
https://rapidgator.net/file/2c5329f487c7e2b61ea0e83beae68b7e/ovb2l.Udemy..Indian.Culinary.World..Master.the.art.of.Indian.Cooking.2020.part4.rar.html
https://rapidgator.net/file/9047a8b9cdfa1992bb31fa97ad1441be/ovb2l.Udemy..Indian.Culinary.World..Master.the.art.of.Indian.Cooking.2020.part5.rar.html
https://rapidgator.net/file/4b577678887cbaa1c024f28a7b6a9ea8/ovb2l.Udemy..Indian.Culinary.World..Master.the.art.of.Indian.Cooking.2020.part6.rar.html

https://nitroflare.com/view/B75FA7EB0E16A59/ovb2l.Udemy..Indian.Culinary.World..Master.the.art.of.Indian.Cooking.2020.part1.rar
https://nitroflare.com/view/C920A8D9DF91B85/ovb2l.Udemy..Indian.Culinary.World..Master.the.art.of.Indian.Cooking.2020.part2.rar
https://nitroflare.com/view/A5CF49AFFCEDCA3/ovb2l.Udemy..Indian.Culinary.World..Master.the.art.of.Indian.Cooking.2020.part3.rar
https://nitroflare.com/view/F4155124E369425/ovb2l.Udemy..Indian.Culinary.World..Master.the.art.of.Indian.Cooking.2020.part4.rar
https://nitroflare.com/view/182F7F2F422DCB2/ovb2l.Udemy..Indian.Culinary.World..Master.the.art.of.Indian.Cooking.2020.part5.rar
https://nitroflare.com/view/C2EDD6C2A7A3695/ovb2l.Udemy..Indian.Culinary.World..Master.the.art.of.Indian.Cooking.2020.part6.rar
Links are Interchangeable – No Password – Single Extraction

Udemy – Indian Culinary World – Master the art of Indian Cooking (2020)