Woodsmith Seminars Podcast

Woodsmith Seminars Podcast
WEBRip | English | WMV | 384 x 216 | WMV3 ~400 kbps | 29.970 fps
WMA | 64 kbps | 44.1 KHz | 2 channels | 42:15:57 | 7.06 GB
Genre: eLearning / Woodworking
Video lessons and seminars on woodworking from the American Journal Woodsmith. Course includes all 44 lessons.

Content:
1 – Dadoes, Grooves, Rabbets & Laps
2 – Mortise & Tenon
3 – Why You Need Hand Planes In Your Shop
4 – Building Picture Frames in Your Shop
5 – Things They Didn’t Teach You in Shop Class
6 – Router Fundamentals – Tips and Tricks
7 – Bowl Turning – From Log to Bowl in Under an Hour
8 – 10 of Our All-Time Favorite Woodworking Tips
9 – Cabinetmaking 101
10 – Tips for Setting Up a Great Home Shop
11 – Tuning Up Your Table Saw for Perfect Cuts
12 – Favorite Shop-Built Table Saw Jigs
13 – Router Table Tips, Tricks & Techniques
14 – Router Inlays
15 – Secrets to Making Perfect Panels
16 – Bending Wood 2 Methods to Creating Curves
17 – 7 Steps to a Perfect Workpiece Squaring Up Lumber
18 – Frames & Panels The Heart of Cabinetmaking
19 – Veneering Step-by-Step from a Master Craftsman
20 – Machine-Cut Dovetails
21 – 5 Things You Didn’t Know You Could Do with Your Table Saw
22 – Buying & Getting the Most Out of Your Band Saw
23 – Pocket Hole Joinery Simple & Strong Cabinetmaking
24 – Troubleshooting Answers to Your Home Repair Questions
25 – Using Hand Planes & Scrapers for a Smooth Finish
26 – Turning Pens on the Lathe From Start to Finish
27 – 10 Essential Hand Tools for Your Shop
28 – Oils and Varnishes
29 – Top 5 Shop-Built Router Jigs
30 – 3 Basic Router Bits 17 Moldings
31 – Selecting Lumber for Great-Looking Projects
32 – Router Table Tips, Tricks, & Techniques
33 – Quick & Easy Joinery
34 – 7 Must-Have Shop-Built Table Saw Accessories
35 – Tuning a Hand Plane for Performance
36 – Hand-Cut Dovetails with Robby Pedersen
37 – Turning Tools – Sharpen Your Skills with Sharp Tools
38 – Tips for Working with Plywood
39 – Building Drawers Using Drawer Joint Bits
40 – Three Hand Planes Every Shop Should Have
41 – Table Saw Set Up & Maintenance
42 – 3 New Innovations in Joinery
43 – 12 Must-Have Finishing Supplies
44 – 5 Surprising Woodworking Techniques You Didn’t Know About

General
Complete name : 28 – Oils and Varnishes.wmv
Format : Windows Media
File size : 237 MiB
Duration : 1 h 11 min
Overall bit rate mode : Constant
Overall bit rate : 465 kb/s
Maximum Overall bit rate : 473 kb/s
Encoded date : UTC 2007-10-04 19:17:39.467

Video
ID : 2
Format : VC-1
Format profile : [email protected]
Codec ID : WMV3
Codec ID/Info : Windows Media Video 9
Codec ID/Hint : WMV3
Description of the codec : Windows Media Video 9
Duration : 1 h 11 min
Bit rate mode : Constant
Bit rate : 400 kb/s
Width : 384 pixels
Height : 216 pixels
Display aspect ratio : 16:9
Frame rate : 29.970 (29970/1000) FPS
Color space : YUV
Chroma subsampling : 4:2:0
Bit depth : 8 bits
Scan type : Progressive
Compression mode : Lossy
Bits/(Pixel*Frame) : 0.161
Stream size : 204 MiB (86%)
Language : English (United States)

Audio
ID : 1
Format : WMA
Format version : Version 2
Codec ID : 161
Codec ID/Info : Windows Media Audio
Description of the codec : Windows Media Audio 9 – 64 kbps, 44 kHz, stereo (A/V) 2-pass CBR
Duration : 1 h 11 min
Bit rate mode : Constant
Bit rate : 64.0 kb/s
Channel(s) : 2 channels
Sampling rate : 44.1 kHz
Bit depth : 16 bits
Stream size : 32.6 MiB (14%)
Language : English (United States)

Full ScreenShots


https://rapidgator.net/file/6574add2f97f703fc31e4ce6a9e7eb48/537fb.Woodsmith.Seminars.Podcast.part01.rar.html
https://rapidgator.net/file/5e770bd1b5ee318e2a25c5ac85f2676b/537fb.Woodsmith.Seminars.Podcast.part02.rar.html
https://rapidgator.net/file/34f5a61f7c02ce5279f3aef01535bbf7/537fb.Woodsmith.Seminars.Podcast.part03.rar.html
https://rapidgator.net/file/45861498fa21fba683ce93a89b0675fc/537fb.Woodsmith.Seminars.Podcast.part04.rar.html
https://rapidgator.net/file/e4564fe3d0c1d0102394506a57016e3f/537fb.Woodsmith.Seminars.Podcast.part05.rar.html
https://rapidgator.net/file/f8cdc654702e4e588a1cc1c5ed80eb4b/537fb.Woodsmith.Seminars.Podcast.part06.rar.html
https://rapidgator.net/file/699bf6ceccf2c68b756f73d89abbd2a9/537fb.Woodsmith.Seminars.Podcast.part07.rar.html
https://rapidgator.net/file/f1914f3c649a179561f5376d09fddf06/537fb.Woodsmith.Seminars.Podcast.part08.rar.html
https://rapidgator.net/file/2856087b89b8a7f99f195ac1570c2f84/537fb.Woodsmith.Seminars.Podcast.part09.rar.html
https://rapidgator.net/file/28ac63f1a26eb065bda1e9d6384d6182/537fb.Woodsmith.Seminars.Podcast.part10.rar.html

https://nitroflare.com/view/24144A6D74A2185/537fb.Woodsmith.Seminars.Podcast.part01.rar
https://nitroflare.com/view/641BCB3D288D3BF/537fb.Woodsmith.Seminars.Podcast.part02.rar
https://nitroflare.com/view/B003CFF45A5B00D/537fb.Woodsmith.Seminars.Podcast.part03.rar
https://nitroflare.com/view/22AF7B79D52A655/537fb.Woodsmith.Seminars.Podcast.part04.rar
https://nitroflare.com/view/CA9EAED2AD5C7B3/537fb.Woodsmith.Seminars.Podcast.part05.rar
https://nitroflare.com/view/98D3C17611C9EC8/537fb.Woodsmith.Seminars.Podcast.part06.rar
https://nitroflare.com/view/DD614F19D7EDD74/537fb.Woodsmith.Seminars.Podcast.part07.rar
https://nitroflare.com/view/466F8BA23142778/537fb.Woodsmith.Seminars.Podcast.part08.rar
https://nitroflare.com/view/C3E30F5EB3A4CC1/537fb.Woodsmith.Seminars.Podcast.part09.rar
https://nitroflare.com/view/06AC8FDCE00C788/537fb.Woodsmith.Seminars.Podcast.part10.rar

Links are Interchangeable – No Password – Single Extraction