Yoga Booty Ballet Live (2 DVD-Set)

Yoga Booty Ballet: Live (2 DVD-Set)
2xDVDRip | English | AVI | 720 x 480 | MPEG-4 ~1198 Kbps | 29.970 fps
MP3 | 128 Kbps | 48.0 KHz | 2 channels | 01:13:11 | 701 MB
Genre: eLearning Video / Yoga, Dance
This is the yoga booty ballet LIVE Hip Hop Abs DVD BRAND NEW straight from BEACHBODY. It will arrive in a plain black case without a picture cover. THIS IS NOT THE HIP HOP AB’s DVD STARING SHAUN T. !!!

"NEW YBB LIVE! DVD – Hip Hop Abs Gillian and Teigh want to make sure you keep your body moving and your booty shakin even if you can’t make it to Swerve. This hot new video is just like taking a class at Swerve in fact they feature actual students from Swerve Studio Los Angeles. Hip Hop abs has fun easy-to-learn dance steps, hand jive ans even pony riding are included here to make you burn tons of calories, shape your body and target your mid section. Sculpt your tummy with the all-new six-minute abdominal routine for a strong defined, scooped in sexy belly ready for Summer!"

Yoga Booty Ballet Live: Cardio Cabaret, Burlesque Style! Gillian Marloth, Teigh McDonough! Yoga Booty Ballet Live Cardio Cabaret Burlesque Style – with Gillian Marloth & Teigh McDonough – This sexy, campy, and even silly cardio cance workout draws on the staples of vaudeville theater. No matter what your fitness level, you’ll burn fat and calories – and who doesn’t want to cut loose in their living room, pretending they’re onstage in a 1940s music hall? With Cardio Cabaret, you get fun, energetic moves, a great workout, and lots of pure joyful self-expression!

also You can find my other last:


https://rapu.world/search/?category_slug=&query=Yoga&language=&age=&author=ParRus&search=1

General
Complete name : 02 – Cardio Cabaret.avi
Format : AVI
Format/Info : Audio Video Interleave
File size : 350 MiB
Duration : 36 min 31 s
Overall bit rate : 1 340 kb/s

Video
ID : 0
Format : MPEG-4 Visual
Format profile : [email protected]
Format settings, BVOP : No
Format settings, QPel : No
Format settings, GMC : No warppoints
Format settings, Matrix : Default (H.263)
Codec ID : DIVX
Codec ID/Info : Project Mayo
Codec ID/Hint : DivX 4
Duration : 36 min 31 s
Source duration : 36 min 31 s
Bit rate : 1 198 kb/s
Width : 720 pixels
Height : 480 pixels
Display aspect ratio : 3:2
Frame rate : 29.970 (30000/1001) FPS
Standard : NTSC
Color space : YUV
Chroma subsampling : 4:2:0
Bit depth : 8 bits
Scan type : Progressive
Compression mode : Lossy
Bits/(Pixel*Frame) : 0.116
Stream size : 313 MiB (89%)
Writing library : avc2.0.11.1110

Audio
ID : 1
Format : MPEG Audio
Format version : Version 1
Format profile : Layer 3
Format settings : Joint stereo / MS Stereo
Codec ID : 55
Codec ID/Hint : MP3
Duration : 36 min 31 s
Bit rate mode : Constant
Bit rate : 128 kb/s
Channel(s) : 2 channels
Sampling rate : 48.0 kHz
Compression mode : Lossy
Stream size : 33.4 MiB (10%)
Alignment : Aligned on interleaves
Interleave, duration : 24 ms (0.72 video frame)

Screenshots

Download link:


https://rapidgator.net/file/8158862d8e60c0633ee7938fe1469f7d/vo87q.01..Hip.Hop.Abs.avi.html
https://rapidgator.net/file/f1b3c59f46411d71bbb44b55892680b4/vo87q.02..Cardio.Cabaret.avi.html

http://nitroflare.com/view/D4DC3547290A0CA/vo87q.01..Hip.Hop.Abs.avi
http://nitroflare.com/view/427D0D977E2BD25/vo87q.02..Cardio.Cabaret.avi

Links are Interchangeable – No Password – Single Extraction

Leave a Reply